Latest Entries »

English Sub, Korean, Download, Mediafire, Tagging, Variety Show, Funny, yoo jae sook, kim jong kook, haha, ha dong hon, gwangvatar, lee kwang soo, guest star, event , show, kbs, sbs, hd, definition, link, share, newest, song ji hyo, gary , ji suk jin, episodes, blogger, backlink, part, show,

Running Man (Korean: 런닝맨) is a South Korean variety show; a part of SBS’s Good Sunday lineup, along with Kim Byung-man’s Law of the Jungle 2. It was first aired on July 11, 2010. This show is classified as an “urban action variety”; a never-before-seen new genre of variety shows.[1] The MCs and guests complete missions in a landmark to win the race.[2] It has garnered attention as being the come-back program for Yu Jae-suk, the main MC of the program, after leaving Good Sunday’s Family Outing in February 2010.[3] Airing at the 5 pm KST time slot for most of its run, Running Man switched to the second part of Good Sunday (which happened May 22 and May 29, 2011 with Kim Yu-na’s Kiss and Cry but was quickly switched back due to low ratings) beginning May 6, 2012, airing after Kim Byung-man’s Law of the Jungle 2 at 6:10 pm and airing against KBS2 Happy Sunday’s 1 Night 2 Days Season 2 and MBC Sunday Night’s I Am a Singer 2.[4]

Some cast

________________________________________________________________________________________

 Big Bang  BoA  Bong Sun  Bora  Cha Tae Hyun  Changmin  choi min soo  Choi Seung Hyun  Choi Si Won  Choi Siwon  Dae Sung Daesung  Dasom  Dong Young Bae  Eunhyuk  G-Dragon  Gary  GD  GO  Go Ah Ra  Goo Hara  Ha Ji Won  Ha-ha  Han Ga In  Han Seung Yeon  Hara  Heechul  Hyorin  Hyoyeon  IU  jang hyuk Jessica  Ji Suk-jin  Ji Yong  Jung Jae Hyung  Jung Yong Hwa  Jung Yonghwa  Kang Daesung  Kang Gary  Kang Hee-gun  Kim Heechul  Kim Hyun Joong  Kim Jae Dong  Kim Jong-kook  Kim Shin Young  Kwon Ji Yong  Lee Da Hae  Lee Gwang Soo  Lee Hong Ki  Lee Hyori  Lee Joon  Lee Kwang-su  Lee Seung Hyun  Lee Soo Hyun  Lizzy  Max Changmin  Minho  Nichkhun  Oh Ji Ho  Park Bo Young  Park Gyuri  Park Ji Sung  Se7en  Seohyun  Seung Ri  Seungri  Shin Se Kyung  Siwon  Son Dam Bi Song Ji-hyo  Song Joong-ki  Soyu  Sulli  suzy  T.O.P.  Tae Yang Taeyang  Taeyeon  TOP  U-Know  Victoria  Yoo Jae Suk  Yoon Do Hyun  Yoona  Yu Jae-suk  Yunho  Yuri

________________________________________________________________________________________

_______________________________________________
Download Link
http://runningmangiveaway.blogspot.com/2012/11/download-link.html
———————————————————————–
Keep Link ALIVE by Sharing Carefully
———————————————————————–

General

Complete name : F:\MUXING FOLDER\THE RUNNING MAN\10 BIT Converted\EP 91 – 120\Running Man – Episodes – 109.mp4
Format : MPEG-4
Format profile : Base Media
Codec ID : isom
File size : 821 MiB
Duration : 1h 30mn
Overall bit rate mode : Variable
Overall bit rate : 1 264 Kbps
Encoded date : UTC 2012-09-30 00:42:49
Tagged date : UTC 2012-09-30 00:42:49

Video

ID : 1
Format : AVC
Format/Info : Advanced Video Codec
Format profile : High 10@L5.0
Format settings, CABAC : Yes
Format settings, ReFrames : 12 frames
Codec ID : avc1
Codec ID/Info : Advanced Video Coding
Duration : 1h 30mn
Bit rate mode : Variable
Bit rate : 1 200 Kbps
Width : 1 280 pixels
Height : 720 pixels
Display aspect ratio : 16:9
Frame rate mode : Constant
Frame rate : 29.970 fps
Color space : YUV
Chroma subsampling : 4:2:0
Bit depth : 10 bits
Scan type : Progressive
Bits/(Pixel*Frame) : 0.043
Stream size : 777 MiB (95%)
Title : Running Man E109 120902 HDTV H264 720p-HANrel
Writing library : x264 core 128 r2216 198a7ea
Encoding settings : cabac=1 / ref=12 / deblock=1:-3:-3 / analyse=0×3:0×133 / me=esa / subme=7 / psy=1 / psy_rd=1.00:0.00 / mixed_ref=1 / me_range=16 / chroma_me=1 / trellis=1 / 8x8dct=1 / cqm=0 / deadzone=21,11 / fast_pskip=1 / chroma_qp_offset=-2 / threads=6 / lookahead_threads=1 / sliced_threads=0 / nr=0 / decimate=1 / interlaced=0 / bluray_compat=0 / constrained_intra=0 / bframes=6 / b_pyramid=2 / b_adapt=1 / b_bias=0 / direct=1 / weightb=1 / open_gop=0 / weightp=2 / keyint=300 / keyint_min=30 / scenecut=40 / intra_refresh=0 / rc_lookahead=40 / rc=crf / mbtree=1 / crf=22.0 / qcomp=0.60 / qpmin=0 / qpmax=81 / qpstep=4 / vbv_maxrate=1200 / vbv_bufsize=25000 / crf_max=0.0 / nal_hrd=vbr / ip_ratio=1.40 / aq=1:1.00
Encoded date : UTC 2012-09-30 00:42:49
Tagged date : UTC 2012-09-30 00:43:30

Audio

ID : 2
Format : AAC
Format/Info : Advanced Audio Codec
Format profile : HE-AAC / LC
Codec ID : 40
Duration : 1h 30mn
Bit rate mode : Variable
Bit rate : 64.2 Kbps
Maximum bit rate : 72.0 Kbps
Channel(s) : 2 channels
Channel positions : Front: L R
Sampling rate : 48.0 KHz / 24.0 KHz
Compression mode : Lossy
Stream size : 41.7 MiB (5%)
Title : Imported with GPAC 0.4.6-DEV (internal rev. 5)
Encoded date : UTC 2012-09-30 00:43:24
Tagged date : UTC 2012-09-30 00:43:30

English Sub, Korean, Download, Mediafire, Tagging, Variety Show, Funny, yoo jae sook, kim jong kook, haha, ha dong hon, gwangvatar, lee kwang soo, guest star, event , show, kbs, sbs, hd, definition, link, share, newest, song ji hyo, gary , ji suk jin, episodes, blogger, backlink, part, show,

Running Man (Korean: 런닝맨) is a South Korean variety show; a part of SBS’s Good Sunday lineup, along with Kim Byung-man’s Law of the Jungle 2. It was first aired on July 11, 2010. This show is classified as an “urban action variety”; a never-before-seen new genre of variety shows.[1] The MCs and guests complete missions in a landmark to win the race.[2] It has garnered attention as being the come-back program for Yu Jae-suk, the main MC of the program, after leaving Good Sunday’s Family Outing in February 2010.[3] Airing at the 5 pm KST time slot for most of its run, Running Man switched to the second part of Good Sunday (which happened May 22 and May 29, 2011 with Kim Yu-na’s Kiss and Cry but was quickly switched back due to low ratings) beginning May 6, 2012, airing after Kim Byung-man’s Law of the Jungle 2 at 6:10 pm and airing against KBS2 Happy Sunday’s 1 Night 2 Days Season 2 and MBC Sunday Night’s I Am a Singer 2.[4]

Some cast

________________________________________________________________________________________

 Big Bang  BoA  Bong Sun  Bora  Cha Tae Hyun  Changmin  choi min soo  Choi Seung Hyun  Choi Si Won  Choi Siwon  Dae Sung Daesung  Dasom  Dong Young Bae  Eunhyuk  G-Dragon  Gary  GD  GO  Go Ah Ra  Goo Hara  Ha Ji Won  Ha-ha  Han Ga In  Han Seung Yeon  Hara  Heechul  Hyorin  Hyoyeon  IU  jang hyuk Jessica  Ji Suk-jin  Ji Yong  Jung Jae Hyung  Jung Yong Hwa  Jung Yonghwa  Kang Daesung  Kang Gary  Kang Hee-gun  Kim Heechul  Kim Hyun Joong  Kim Jae Dong  Kim Jong-kook  Kim Shin Young  Kwon Ji Yong  Lee Da Hae  Lee Gwang Soo  Lee Hong Ki  Lee Hyori  Lee Joon  Lee Kwang-su  Lee Seung Hyun  Lee Soo Hyun  Lizzy  Max Changmin  Minho  Nichkhun  Oh Ji Ho  Park Bo Young  Park Gyuri  Park Ji Sung  Se7en  Seohyun  Seung Ri  Seungri  Shin Se Kyung  Siwon  Son Dam Bi Song Ji-hyo  Song Joong-ki  Soyu  Sulli  suzy  T.O.P.  Tae Yang Taeyang  Taeyeon  TOP  U-Know  Victoria  Yoo Jae Suk  Yoon Do Hyun  Yoona  Yu Jae-suk  Yunho  Yuri

________________________________________________________________________________________

_______________________________________________
Download Link
http://runningmangiveaway.blogspot.com/2012/11/download-link.html
———————————————————————–
Keep Link ALIVE by Sharing Carefully
———————————————————————–

General

Complete name : F:\MUXING FOLDER\THE RUNNING MAN\10 BIT Converted\EP 91 – 120\Running Man – Episodes – 108.mp4
Format : MPEG-4
Format profile : Base Media
Codec ID : isom
File size : 811 MiB
Duration : 1h 27mn
Overall bit rate mode : Variable
Overall bit rate : 1 297 Kbps
Encoded date : UTC 2012-09-29 16:56:04
Tagged date : UTC 2012-09-29 16:56:04

Video

ID : 1
Format : AVC
Format/Info : Advanced Video Codec
Format profile : High 10@L5.0
Format settings, CABAC : Yes
Format settings, ReFrames : 12 frames
Codec ID : avc1
Codec ID/Info : Advanced Video Coding
Duration : 1h 27mn
Bit rate mode : Variable
Bit rate : 1 200 Kbps
Width : 1 280 pixels
Height : 720 pixels
Display aspect ratio : 16:9
Frame rate mode : Constant
Frame rate : 29.970 fps
Color space : YUV
Chroma subsampling : 4:2:0
Bit depth : 10 bits
Scan type : Progressive
Bits/(Pixel*Frame) : 0.043
Stream size : 748 MiB (92%)
Title : Running Man E108 120826 HDTV H264 720p-HANrel
Writing library : x264 core 128 r2216 198a7ea
Encoding settings : cabac=1 / ref=12 / deblock=1:-3:-3 / analyse=0×3:0×133 / me=esa / subme=7 / psy=1 / psy_rd=1.00:0.00 / mixed_ref=1 / me_range=16 / chroma_me=1 / trellis=1 / 8x8dct=1 / cqm=0 / deadzone=21,11 / fast_pskip=1 / chroma_qp_offset=-2 / threads=6 / lookahead_threads=1 / sliced_threads=0 / nr=0 / decimate=1 / interlaced=0 / bluray_compat=0 / constrained_intra=0 / bframes=6 / b_pyramid=2 / b_adapt=1 / b_bias=0 / direct=1 / weightb=1 / open_gop=0 / weightp=2 / keyint=300 / keyint_min=30 / scenecut=40 / intra_refresh=0 / rc_lookahead=40 / rc=crf / mbtree=1 / crf=22.0 / qcomp=0.60 / qpmin=0 / qpmax=81 / qpstep=4 / vbv_maxrate=1200 / vbv_bufsize=25000 / crf_max=0.0 / nal_hrd=vbr / ip_ratio=1.40 / aq=1:1.00
Encoded date : UTC 2012-09-29 16:56:04
Tagged date : UTC 2012-09-29 16:56:49

Audio

ID : 2
Format : AAC
Format/Info : Advanced Audio Codec
Format profile : LC
Codec ID : 40
Duration : 1h 27mn
Bit rate mode : Variable
Bit rate : 96.0 Kbps
Maximum bit rate : 105 Kbps
Channel(s) : 2 channels
Channel positions : Front: L R
Sampling rate : 48.0 KHz
Compression mode : Lossy
Stream size : 60.2 MiB (7%)
Title : Imported with GPAC 0.4.6-DEV (internal rev. 5)
Encoded date : UTC 2012-09-29 16:56:39
Tagged date : UTC 2012-09-29 16:56:49

English Sub, Korean, Download, Mediafire, Tagging, Variety Show, Funny, yoo jae sook, kim jong kook, haha, ha dong hon, gwangvatar, lee kwang soo, guest star, event , show, kbs, sbs, hd, definition, link, share, newest, song ji hyo, gary , ji suk jin, episodes, blogger, backlink, part, show,

Running Man (Korean: 런닝맨) is a South Korean variety show; a part of SBS’s Good Sunday lineup, along with Kim Byung-man’s Law of the Jungle 2. It was first aired on July 11, 2010. This show is classified as an “urban action variety”; a never-before-seen new genre of variety shows.[1] The MCs and guests complete missions in a landmark to win the race.[2] It has garnered attention as being the come-back program for Yu Jae-suk, the main MC of the program, after leaving Good Sunday’s Family Outing in February 2010.[3] Airing at the 5 pm KST time slot for most of its run, Running Man switched to the second part of Good Sunday (which happened May 22 and May 29, 2011 with Kim Yu-na’s Kiss and Cry but was quickly switched back due to low ratings) beginning May 6, 2012, airing after Kim Byung-man’s Law of the Jungle 2 at 6:10 pm and airing against KBS2 Happy Sunday’s 1 Night 2 Days Season 2 and MBC Sunday Night’s I Am a Singer 2.[4]

Some cast

________________________________________________________________________________________

 Big Bang  BoA  Bong Sun  Bora  Cha Tae Hyun  Changmin  choi min soo  Choi Seung Hyun  Choi Si Won  Choi Siwon  Dae Sung Daesung  Dasom  Dong Young Bae  Eunhyuk  G-Dragon  Gary  GD  GO  Go Ah Ra  Goo Hara  Ha Ji Won  Ha-ha  Han Ga In  Han Seung Yeon  Hara  Heechul  Hyorin  Hyoyeon  IU  jang hyuk Jessica  Ji Suk-jin  Ji Yong  Jung Jae Hyung  Jung Yong Hwa  Jung Yonghwa  Kang Daesung  Kang Gary  Kang Hee-gun  Kim Heechul  Kim Hyun Joong  Kim Jae Dong  Kim Jong-kook  Kim Shin Young  Kwon Ji Yong  Lee Da Hae  Lee Gwang Soo  Lee Hong Ki  Lee Hyori  Lee Joon  Lee Kwang-su  Lee Seung Hyun  Lee Soo Hyun  Lizzy  Max Changmin  Minho  Nichkhun  Oh Ji Ho  Park Bo Young  Park Gyuri  Park Ji Sung  Se7en  Seohyun  Seung Ri  Seungri  Shin Se Kyung  Siwon  Son Dam Bi Song Ji-hyo  Song Joong-ki  Soyu  Sulli  suzy  T.O.P.  Tae Yang Taeyang  Taeyeon  TOP  U-Know  Victoria  Yoo Jae Suk  Yoon Do Hyun  Yoona  Yu Jae-suk  Yunho  Yuri

________________________________________________________________________________________

_______________________________________________
Download Link
http://runningmangiveaway.blogspot.com/2012/11/download-link.html
———————————————————————–
Keep Link ALIVE by Sharing Carefully
———————————————————————–

General

Complete name : F:\MUXING FOLDER\THE RUNNING MAN\10 BIT Converted\EP 91 – 120\Running Man – Episodes – 107.mp4
Format : MPEG-4
Format profile : Base Media
Codec ID : isom
File size : 857 MiB
Duration : 1h 34mn
Overall bit rate mode : Variable
Overall bit rate : 1 264 Kbps
Encoded date : UTC 2012-09-29 05:27:14
Tagged date : UTC 2012-09-29 05:27:14

Video

ID : 1
Format : AVC
Format/Info : Advanced Video Codec
Format profile : High 10@L5.0
Format settings, CABAC : Yes
Format settings, ReFrames : 12 frames
Codec ID : avc1
Codec ID/Info : Advanced Video Coding
Duration : 1h 34mn
Bit rate mode : Variable
Bit rate : 1 200 Kbps
Width : 1 280 pixels
Height : 720 pixels
Display aspect ratio : 16:9
Frame rate mode : Constant
Frame rate : 29.970 fps
Color space : YUV
Chroma subsampling : 4:2:0
Bit depth : 10 bits
Scan type : Progressive
Bits/(Pixel*Frame) : 0.043
Stream size : 811 MiB (95%)
Title : Running Man E107 120819 HDTV H264 720p-HANrel
Writing library : x264 core 128 r2216 198a7ea
Encoding settings : cabac=1 / ref=12 / deblock=1:-3:-3 / analyse=0×3:0×133 / me=esa / subme=7 / psy=1 / psy_rd=1.00:0.00 / mixed_ref=1 / me_range=16 / chroma_me=1 / trellis=1 / 8x8dct=1 / cqm=0 / deadzone=21,11 / fast_pskip=1 / chroma_qp_offset=-2 / threads=6 / lookahead_threads=1 / sliced_threads=0 / nr=0 / decimate=1 / interlaced=0 / bluray_compat=0 / constrained_intra=0 / bframes=6 / b_pyramid=2 / b_adapt=1 / b_bias=0 / direct=1 / weightb=1 / open_gop=0 / weightp=2 / keyint=300 / keyint_min=30 / scenecut=40 / intra_refresh=0 / rc_lookahead=40 / rc=crf / mbtree=1 / crf=22.0 / qcomp=0.60 / qpmin=0 / qpmax=81 / qpstep=4 / vbv_maxrate=1200 / vbv_bufsize=25000 / crf_max=0.0 / nal_hrd=vbr / ip_ratio=1.40 / aq=1:1.00
Encoded date : UTC 2012-09-29 05:27:14
Tagged date : UTC 2012-09-29 05:27:59

Audio

ID : 2
Format : AAC
Format/Info : Advanced Audio Codec
Format profile : HE-AAC / LC
Codec ID : 40
Duration : 1h 34mn
Bit rate mode : Variable
Bit rate : 64.2 Kbps
Maximum bit rate : 72.7 Kbps
Channel(s) : 2 channels
Channel positions : Front: L R
Sampling rate : 48.0 KHz / 24.0 KHz
Compression mode : Lossy
Stream size : 43.5 MiB (5%)
Title : Imported with GPAC 0.4.6-DEV (internal rev. 5)
Encoded date : UTC 2012-09-29 05:27:52
Tagged date : UTC 2012-09-29 05:27:59

English Sub, Korean, Download, Mediafire, Tagging, Variety Show, Funny, yoo jae sook, kim jong kook, haha, ha dong hon, gwangvatar, lee kwang soo, guest star, event , show, kbs, sbs, hd, definition, link, share, newest, song ji hyo, gary , ji suk jin, episodes, blogger, backlink, part, show,

Running Man (Korean: 런닝맨) is a South Korean variety show; a part of SBS’s Good Sunday lineup, along with Kim Byung-man’s Law of the Jungle 2. It was first aired on July 11, 2010. This show is classified as an “urban action variety”; a never-before-seen new genre of variety shows.[1] The MCs and guests complete missions in a landmark to win the race.[2] It has garnered attention as being the come-back program for Yu Jae-suk, the main MC of the program, after leaving Good Sunday’s Family Outing in February 2010.[3] Airing at the 5 pm KST time slot for most of its run, Running Man switched to the second part of Good Sunday (which happened May 22 and May 29, 2011 with Kim Yu-na’s Kiss and Cry but was quickly switched back due to low ratings) beginning May 6, 2012, airing after Kim Byung-man’s Law of the Jungle 2 at 6:10 pm and airing against KBS2 Happy Sunday’s 1 Night 2 Days Season 2 and MBC Sunday Night’s I Am a Singer 2.[4]

Some cast

________________________________________________________________________________________

 Big Bang  BoA  Bong Sun  Bora  Cha Tae Hyun  Changmin  choi min soo  Choi Seung Hyun  Choi Si Won  Choi Siwon  Dae Sung Daesung  Dasom  Dong Young Bae  Eunhyuk  G-Dragon  Gary  GD  GO  Go Ah Ra  Goo Hara  Ha Ji Won  Ha-ha  Han Ga In  Han Seung Yeon  Hara  Heechul  Hyorin  Hyoyeon  IU  jang hyuk Jessica  Ji Suk-jin  Ji Yong  Jung Jae Hyung  Jung Yong Hwa  Jung Yonghwa  Kang Daesung  Kang Gary  Kang Hee-gun  Kim Heechul  Kim Hyun Joong  Kim Jae Dong  Kim Jong-kook  Kim Shin Young  Kwon Ji Yong  Lee Da Hae  Lee Gwang Soo  Lee Hong Ki  Lee Hyori  Lee Joon  Lee Kwang-su  Lee Seung Hyun  Lee Soo Hyun  Lizzy  Max Changmin  Minho  Nichkhun  Oh Ji Ho  Park Bo Young  Park Gyuri  Park Ji Sung  Se7en  Seohyun  Seung Ri  Seungri  Shin Se Kyung  Siwon  Son Dam Bi Song Ji-hyo  Song Joong-ki  Soyu  Sulli  suzy  T.O.P.  Tae Yang Taeyang  Taeyeon  TOP  U-Know  Victoria  Yoo Jae Suk  Yoon Do Hyun  Yoona  Yu Jae-suk  Yunho  Yuri

________________________________________________________________________________________

_______________________________________________
Download Link
http://runningmangiveaway.blogspot.com/2012/11/download-link.html
———————————————————————–
Keep Link ALIVE by Sharing Carefully
———————————————————————–

General

Complete name : F:\MUXING FOLDER\THE RUNNING MAN\10 BIT Converted\EP 91 – 120\Running Man – Episodes – 106.mp4
Format : MPEG-4
Format profile : Base Media
Codec ID : isom
File size : 828 MiB
Duration : 1h 29mn
Overall bit rate mode : Variable
Overall bit rate : 1 294 Kbps
Encoded date : UTC 2012-10-01 08:07:16
Tagged date : UTC 2012-10-01 08:07:16
Cover : Yes

Video

ID : 1
Format : AVC
Format/Info : Advanced Video Codec
Format profile : High 10@L5.0
Format settings, CABAC : Yes
Format settings, ReFrames : 12 frames
Codec ID : avc1
Codec ID/Info : Advanced Video Coding
Duration : 1h 29mn
Bit rate mode : Variable
Bit rate : 1 230 Kbps
Width : 1 280 pixels
Height : 720 pixels
Display aspect ratio : 16:9
Frame rate mode : Constant
Frame rate : 29.970 fps
Color space : YUV
Chroma subsampling : 4:2:0
Bit depth : 10 bits
Scan type : Progressive
Bits/(Pixel*Frame) : 0.045
Stream size : 785 MiB (95%)
Title : Running Man E106 120812 HDTV H264 720p-HANrel
Writing library : x264 core 128 r2216 198a7ea
Encoding settings : cabac=1 / ref=12 / deblock=1:1:1 / analyse=0×3:0×133 / me=esa / subme=7 / psy=1 / psy_rd=1.00:0.00 / mixed_ref=1 / me_range=16 / chroma_me=1 / trellis=1 / 8x8dct=1 / cqm=0 / deadzone=21,11 / fast_pskip=1 / chroma_qp_offset=-2 / threads=6 / lookahead_threads=1 / sliced_threads=0 / nr=0 / decimate=1 / interlaced=0 / bluray_compat=0 / constrained_intra=0 / bframes=10 / b_pyramid=2 / b_adapt=1 / b_bias=0 / direct=1 / weightb=1 / open_gop=0 / weightp=2 / keyint=300 / keyint_min=30 / scenecut=40 / intra_refresh=0 / rc_lookahead=40 / rc=crf / mbtree=1 / crf=18.0 / qcomp=0.60 / qpmin=0 / qpmax=81 / qpstep=4 / vbv_maxrate=1230 / vbv_bufsize=25000 / crf_max=0.0 / nal_hrd=vbr / ip_ratio=1.40 / aq=1:1.00
Encoded date : UTC 2012-10-01 08:07:16
Tagged date : UTC 2012-10-01 08:07:53

Audio

ID : 2
Format : AAC
Format/Info : Advanced Audio Codec
Format profile : HE-AAC / LC
Codec ID : 40
Duration : 1h 29mn
Bit rate mode : Variable
Bit rate : 64.2 Kbps
Maximum bit rate : 72.6 Kbps
Channel(s) : 2 channels
Channel positions : Front: L R
Sampling rate : 48.0 KHz / 24.0 KHz
Compression mode : Lossy
Stream size : 41.1 MiB (5%)
Title : Imported with GPAC 0.4.6-DEV (internal rev. 5)
Encoded date : UTC 2012-10-01 08:07:45
Tagged date : UTC 2012-10-01 08:07:53

English Sub, Korean, Download, Mediafire, Tagging, Variety Show, Funny, yoo jae sook, kim jong kook, haha, ha dong hon, gwangvatar, lee kwang soo, guest star, event , show, kbs, sbs, hd, definition, link, share, newest, song ji hyo, gary , ji suk jin, episodes, blogger, backlink, part, show,

Running Man (Korean: 런닝맨) is a South Korean variety show; a part of SBS’s Good Sunday lineup, along with Kim Byung-man’s Law of the Jungle 2. It was first aired on July 11, 2010. This show is classified as an “urban action variety”; a never-before-seen new genre of variety shows.[1] The MCs and guests complete missions in a landmark to win the race.[2] It has garnered attention as being the come-back program for Yu Jae-suk, the main MC of the program, after leaving Good Sunday’s Family Outing in February 2010.[3] Airing at the 5 pm KST time slot for most of its run, Running Man switched to the second part of Good Sunday (which happened May 22 and May 29, 2011 with Kim Yu-na’s Kiss and Cry but was quickly switched back due to low ratings) beginning May 6, 2012, airing after Kim Byung-man’s Law of the Jungle 2 at 6:10 pm and airing against KBS2 Happy Sunday’s 1 Night 2 Days Season 2 and MBC Sunday Night’s I Am a Singer 2.[4]

Some cast

________________________________________________________________________________________

 Big Bang  BoA  Bong Sun  Bora  Cha Tae Hyun  Changmin  choi min soo  Choi Seung Hyun  Choi Si Won  Choi Siwon  Dae Sung Daesung  Dasom  Dong Young Bae  Eunhyuk  G-Dragon  Gary  GD  GO  Go Ah Ra  Goo Hara  Ha Ji Won  Ha-ha  Han Ga In  Han Seung Yeon  Hara  Heechul  Hyorin  Hyoyeon  IU  jang hyuk Jessica  Ji Suk-jin  Ji Yong  Jung Jae Hyung  Jung Yong Hwa  Jung Yonghwa  Kang Daesung  Kang Gary  Kang Hee-gun  Kim Heechul  Kim Hyun Joong  Kim Jae Dong  Kim Jong-kook  Kim Shin Young  Kwon Ji Yong  Lee Da Hae  Lee Gwang Soo  Lee Hong Ki  Lee Hyori  Lee Joon  Lee Kwang-su  Lee Seung Hyun  Lee Soo Hyun  Lizzy  Max Changmin  Minho  Nichkhun  Oh Ji Ho  Park Bo Young  Park Gyuri  Park Ji Sung  Se7en  Seohyun  Seung Ri  Seungri  Shin Se Kyung  Siwon  Son Dam Bi Song Ji-hyo  Song Joong-ki  Soyu  Sulli  suzy  T.O.P.  Tae Yang Taeyang  Taeyeon  TOP  U-Know  Victoria  Yoo Jae Suk  Yoon Do Hyun  Yoona  Yu Jae-suk  Yunho  Yuri

________________________________________________________________________________________

_______________________________________________
Download Link
http://runningmangiveaway.blogspot.com/2012/11/download-link.html
———————————————————————–
Keep Link ALIVE by Sharing Carefully
———————————————————————–

General

Unique ID : 229041974137949885988634500573898405865 (0xAC4FE130D5481C09B0F569F5270EF7E9)
Complete name : F:\MUXING FOLDER\THE RUNNING MAN\10 BIT Converted\EP 91 – 120\Running Man – Episodes – 105.mkv
Format : Matroska
Format version : Version 2
File size : 1.68 GiB
Duration : 1h 29mn
Overall bit rate : 2 688 Kbps
Encoded date : UTC 2012-11-08 14:55:39
Writing application : mkvmerge v5.8.0 (‘No Sleep / Pillow’) built on Sep 2 2012 15:37:04
Writing library : libebml v1.2.3 + libmatroska v1.3.0

Video

ID : 1
Format : AVC
Format/Info : Advanced Video Codec
Format profile : High@L5.1
Format settings, CABAC : Yes
Format settings, ReFrames : 2 frames
Muxing mode : Header stripping
Codec ID : V_MPEG4/ISO/AVC
Bit rate : 2 500 Kbps
Width : 1 280 pixels
Height : 720 pixels
Display aspect ratio : 16:9
Frame rate mode : Variable
Original frame rate : 29.970 fps
Color space : YUV
Chroma subsampling : 4:2:0
Bit depth : 8 bits
Scan type : Progressive
Bits/(Pixel*Frame) : 0.091
Writing library : x264 core 50 svn-569
Encoding settings : cabac=1 / ref=1 / deblock=1:0:0 / analyse=0×3:0×113 / me=hex / subme=5 / brdo=0 / mixed_ref=0 / me_range=16 / chroma_me=1 / trellis=1 / 8x8dct=1 / cqm=0 / chroma_qp_offset=0 / slices=1 / nr=0 / decimate=1 / bframes=2 / b_pyramid=0 / b_adapt=1 / b_bias=0 / direct=2 / wpredb=1 / bime=0 / keyint=250 / keyint_min=25 / scenecut=40 / rc=abr / bitrate=2500 / ratetol=1.0 / rceq=’blurCplx^(1-qComp)’ / qcomp=0.60 / qpmin=10 / qpmax=51 / qpstep=4 / ip_ratio=1.40 / pb_ratio=1.30
Default : Yes
Forced : No

Audio

ID : 2
Format : AC-3
Format/Info : Audio Coding 3
Mode extension : CM (complete main)
Format settings, Endianness : Big
Muxing mode : Header stripping
Codec ID : A_AC3
Duration : 1h 29mn
Bit rate mode : Constant
Bit rate : 192 Kbps
Channel(s) : 2 channels
Channel positions : Front: L R
Sampling rate : 48.0 KHz
Bit depth : 16 bits
Compression mode : Lossy
Stream size : 123 MiB (7%)
Default : Yes
Forced : No

Text

ID : 3
Format : ASS
Codec ID : S_TEXT/ASS
Codec ID/Info : Advanced Sub Station Alpha
Compression mode : Lossless
Default : Yes
Forced : No

English Sub, Korean, Download, Mediafire, Tagging, Variety Show, Funny, yoo jae sook, kim jong kook, haha, ha dong hon, gwangvatar, lee kwang soo, guest star, event , show, kbs, sbs, hd, definition, link, share, newest, song ji hyo, gary , ji suk jin, episodes, blogger, backlink, part, show,

Running Man (Korean: 런닝맨) is a South Korean variety show; a part of SBS’s Good Sunday lineup, along with Kim Byung-man’s Law of the Jungle 2. It was first aired on July 11, 2010. This show is classified as an “urban action variety”; a never-before-seen new genre of variety shows.[1] The MCs and guests complete missions in a landmark to win the race.[2] It has garnered attention as being the come-back program for Yu Jae-suk, the main MC of the program, after leaving Good Sunday’s Family Outing in February 2010.[3] Airing at the 5 pm KST time slot for most of its run, Running Man switched to the second part of Good Sunday (which happened May 22 and May 29, 2011 with Kim Yu-na’s Kiss and Cry but was quickly switched back due to low ratings) beginning May 6, 2012, airing after Kim Byung-man’s Law of the Jungle 2 at 6:10 pm and airing against KBS2 Happy Sunday’s 1 Night 2 Days Season 2 and MBC Sunday Night’s I Am a Singer 2.[4]

Some cast

________________________________________________________________________________________

 Big Bang  BoA  Bong Sun  Bora  Cha Tae Hyun  Changmin  choi min soo  Choi Seung Hyun  Choi Si Won  Choi Siwon  Dae Sung Daesung  Dasom  Dong Young Bae  Eunhyuk  G-Dragon  Gary  GD  GO  Go Ah Ra  Goo Hara  Ha Ji Won  Ha-ha  Han Ga In  Han Seung Yeon  Hara  Heechul  Hyorin  Hyoyeon  IU  jang hyuk Jessica  Ji Suk-jin  Ji Yong  Jung Jae Hyung  Jung Yong Hwa  Jung Yonghwa  Kang Daesung  Kang Gary  Kang Hee-gun  Kim Heechul  Kim Hyun Joong  Kim Jae Dong  Kim Jong-kook  Kim Shin Young  Kwon Ji Yong  Lee Da Hae  Lee Gwang Soo  Lee Hong Ki  Lee Hyori  Lee Joon  Lee Kwang-su  Lee Seung Hyun  Lee Soo Hyun  Lizzy  Max Changmin  Minho  Nichkhun  Oh Ji Ho  Park Bo Young  Park Gyuri  Park Ji Sung  Se7en  Seohyun  Seung Ri  Seungri  Shin Se Kyung  Siwon  Son Dam Bi Song Ji-hyo  Song Joong-ki  Soyu  Sulli  suzy  T.O.P.  Tae Yang Taeyang  Taeyeon  TOP  U-Know  Victoria  Yoo Jae Suk  Yoon Do Hyun  Yoona  Yu Jae-suk  Yunho  Yuri

________________________________________________________________________________________

_______________________________________________
Download Link
http://runningmangiveaway.blogspot.com/2012/11/download-link.html
———————————————————————–
Keep Link ALIVE by Sharing Carefully
———————————————————————–

General

Complete name : F:\MUXING FOLDER\THE RUNNING MAN\10 BIT Converted\EP 91 – 120\Running Man – Episodes – 104.mp4
Format : MPEG-4
Format profile : Base Media
Codec ID : isom
File size : 814 MiB
Duration : 1h 29mn
Overall bit rate mode : Variable
Overall bit rate : 1 264 Kbps
Encoded date : UTC 2012-08-15 22:16:21
Tagged date : UTC 2012-08-15 22:16:21

Video

ID : 1
Format : AVC
Format/Info : Advanced Video Codec
Format profile : High 10@L5.0
Format settings, CABAC : Yes
Format settings, ReFrames : 12 frames
Codec ID : avc1
Codec ID/Info : Advanced Video Coding
Duration : 1h 29mn
Bit rate : 1 197 Kbps
Maximum bit rate : 4 269 Kbps
Width : 1 280 pixels
Height : 720 pixels
Display aspect ratio : 16:9
Frame rate mode : Constant
Frame rate : 29.970 fps
Color space : YUV
Chroma subsampling : 4:2:0
Bit depth : 10 bits
Scan type : Progressive
Bits/(Pixel*Frame) : 0.043
Stream size : 770 MiB (95%)
Title : Running Man E104 120722 HDTV H264 720p-HANrel
Writing library : x264 core 125 r2200kMod 999b753
Encoding settings : cabac=1 / ref=12 / deblock=1:1:1 / analyse=0×3:0×133 / me=umh / subme=7 / psy=1 / fade_compensate=0.00 / psy_rd=1.00:0.00 / mixed_ref=1 / me_range=16 / chroma_me=1 / trellis=1 / 8x8dct=1 / cqm=0 / deadzone=21,11 / fast_pskip=1 / chroma_qp_offset=-2 / threads=6 / lookahead_threads=1 / sliced_threads=0 / nr=0 / decimate=1 / interlaced=0 / bluray_compat=0 / constrained_intra=0 / bframes=8 / b_pyramid=2 / b_adapt=1 / b_bias=0 / direct=1 / weightb=0 / open_gop=0 / weightp=2 / keyint=300 / keyint_min=30 / scenecut=40 / intra_refresh=0 / rc_lookahead=40 / rc=crf / mbtree=1 / crf=22.0000 / qcomp=0.60 / qpmin=0 / qpmax=81 / qpstep=4 / vbv_maxrate=1200 / vbv_bufsize=25000 / crf_max=0.0 / nal_hrd=none / ip_ratio=1.40 / aq=1:1.00
Encoded date : UTC 2012-08-15 22:16:21
Tagged date : UTC 2012-08-15 22:17:43

Audio

ID : 2
Format : AAC
Format/Info : Advanced Audio Codec
Format profile : HE-AAC / LC
Codec ID : 40
Duration : 1h 29mn
Bit rate mode : Variable
Bit rate : 64.2 Kbps
Maximum bit rate : 72.8 Kbps
Channel(s) : 2 channels
Channel positions : Front: L R
Sampling rate : 48.0 KHz / 24.0 KHz
Compression mode : Lossy
Stream size : 41.3 MiB (5%)
Title : Imported with GPAC 0.4.6-DEV (internal rev. 5)
Encoded date : UTC 2012-08-15 22:17:31
Tagged date : UTC 2012-08-15 22:17:43

English Sub, Korean, Download, Mediafire, Tagging, Variety Show, Funny, yoo jae sook, kim jong kook, haha, ha dong hon, gwangvatar, lee kwang soo, guest star, event , show, kbs, sbs, hd, definition, link, share, newest, song ji hyo, gary , ji suk jin, episodes, blogger, backlink, part, show,

Running Man (Korean: 런닝맨) is a South Korean variety show; a part of SBS’s Good Sunday lineup, along with Kim Byung-man’s Law of the Jungle 2. It was first aired on July 11, 2010. This show is classified as an “urban action variety”; a never-before-seen new genre of variety shows.[1] The MCs and guests complete missions in a landmark to win the race.[2] It has garnered attention as being the come-back program for Yu Jae-suk, the main MC of the program, after leaving Good Sunday’s Family Outing in February 2010.[3] Airing at the 5 pm KST time slot for most of its run, Running Man switched to the second part of Good Sunday (which happened May 22 and May 29, 2011 with Kim Yu-na’s Kiss and Cry but was quickly switched back due to low ratings) beginning May 6, 2012, airing after Kim Byung-man’s Law of the Jungle 2 at 6:10 pm and airing against KBS2 Happy Sunday’s 1 Night 2 Days Season 2 and MBC Sunday Night’s I Am a Singer 2.[4]

Some cast

________________________________________________________________________________________

 Big Bang  BoA  Bong Sun  Bora  Cha Tae Hyun  Changmin  choi min soo  Choi Seung Hyun  Choi Si Won  Choi Siwon  Dae Sung Daesung  Dasom  Dong Young Bae  Eunhyuk  G-Dragon  Gary  GD  GO  Go Ah Ra  Goo Hara  Ha Ji Won  Ha-ha  Han Ga In  Han Seung Yeon  Hara  Heechul  Hyorin  Hyoyeon  IU  jang hyuk Jessica  Ji Suk-jin  Ji Yong  Jung Jae Hyung  Jung Yong Hwa  Jung Yonghwa  Kang Daesung  Kang Gary  Kang Hee-gun  Kim Heechul  Kim Hyun Joong  Kim Jae Dong  Kim Jong-kook  Kim Shin Young  Kwon Ji Yong  Lee Da Hae  Lee Gwang Soo  Lee Hong Ki  Lee Hyori  Lee Joon  Lee Kwang-su  Lee Seung Hyun  Lee Soo Hyun  Lizzy  Max Changmin  Minho  Nichkhun  Oh Ji Ho  Park Bo Young  Park Gyuri  Park Ji Sung  Se7en  Seohyun  Seung Ri  Seungri  Shin Se Kyung  Siwon  Son Dam Bi Song Ji-hyo  Song Joong-ki  Soyu  Sulli  suzy  T.O.P.  Tae Yang Taeyang  Taeyeon  TOP  U-Know  Victoria  Yoo Jae Suk  Yoon Do Hyun  Yoona  Yu Jae-suk  Yunho  Yuri

________________________________________________________________________________________

_______________________________________________
Download Link
http://runningmangiveaway.blogspot.com/2012/11/download-link.html
———————————————————————–
Keep Link ALIVE by Sharing Carefully
———————————————————————–

General

Complete name : F:\MUXING FOLDER\THE RUNNING MAN\10 BIT Converted\EP 91 – 120\Running Man – Episodes – 103.mp4
Format : MPEG-4
Format profile : Base Media
Codec ID : isom
File size : 857 MiB
Duration : 1h 34mn
Overall bit rate mode : Variable
Overall bit rate : 1 265 Kbps
Encoded date : UTC 2012-08-04 18:52:46
Tagged date : UTC 2012-08-04 18:52:46

Video

ID : 1
Format : AVC
Format/Info : Advanced Video Codec
Format profile : High 10@L5.0
Format settings, CABAC : Yes
Format settings, ReFrames : 12 frames
Codec ID : avc1
Codec ID/Info : Advanced Video Coding
Duration : 1h 34mn
Duration_LastFrame : 33ms
Bit rate : 1 197 Kbps
Maximum bit rate : 2 925 Kbps
Width : 1 280 pixels
Height : 720 pixels
Display aspect ratio : 16:9
Frame rate mode : Constant
Frame rate : 29.970 fps
Color space : YUV
Chroma subsampling : 4:2:0
Bit depth : 10 bits
Scan type : Progressive
Bits/(Pixel*Frame) : 0.043
Stream size : 811 MiB (95%)
Title : Running Man E103 120715 HDTV H264 720p-HANrel
Writing library : x264 core 125 r2200kMod 999b753
Encoding settings : cabac=1 / ref=12 / deblock=1:1:1 / analyse=0×3:0×133 / me=umh / subme=7 / psy=1 / fade_compensate=0.00 / psy_rd=1.00:0.00 / mixed_ref=1 / me_range=16 / chroma_me=1 / trellis=1 / 8x8dct=1 / cqm=0 / deadzone=21,11 / fast_pskip=1 / chroma_qp_offset=-2 / threads=6 / lookahead_threads=1 / sliced_threads=0 / nr=0 / decimate=1 / interlaced=0 / bluray_compat=0 / constrained_intra=0 / bframes=8 / b_pyramid=2 / b_adapt=1 / b_bias=0 / direct=1 / weightb=0 / open_gop=0 / weightp=2 / keyint=300 / keyint_min=30 / scenecut=40 / intra_refresh=0 / rc_lookahead=40 / rc=crf / mbtree=1 / crf=22.0000 / qcomp=0.60 / qpmin=0 / qpmax=81 / qpstep=4 / vbv_maxrate=1200 / vbv_bufsize=25000 / crf_max=0.0 / nal_hrd=none / ip_ratio=1.40 / aq=1:1.00
Encoded date : UTC 2012-08-04 18:52:46
Tagged date : UTC 2012-08-04 18:54:43

Audio

ID : 2
Format : AAC
Format/Info : Advanced Audio Codec
Format profile : HE-AAC / LC
Codec ID : 40
Duration : 1h 34mn
Bit rate mode : Variable
Bit rate : 64.2 Kbps
Maximum bit rate : 74.0 Kbps
Channel(s) : 2 channels
Channel positions : Front: L R
Sampling rate : 48.0 KHz / 24.0 KHz
Compression mode : Lossy
Stream size : 43.5 MiB (5%)
Title : Imported with GPAC 0.4.6-DEV (internal rev. 5)
Encoded date : UTC 2012-08-04 18:54:29
Tagged date : UTC 2012-08-04 18:54:43

English Sub, Korean, Download, Mediafire, Tagging, Variety Show, Funny, yoo jae sook, kim jong kook, haha, ha dong hon, gwangvatar, lee kwang soo, guest star, event , show, kbs, sbs, hd, definition, link, share, newest, song ji hyo, gary , ji suk jin, episodes, blogger, backlink, part, show,

Running Man (Korean: 런닝맨) is a South Korean variety show; a part of SBS’s Good Sunday lineup, along with Kim Byung-man’s Law of the Jungle 2. It was first aired on July 11, 2010. This show is classified as an “urban action variety”; a never-before-seen new genre of variety shows.[1] The MCs and guests complete missions in a landmark to win the race.[2] It has garnered attention as being the come-back program for Yu Jae-suk, the main MC of the program, after leaving Good Sunday’s Family Outing in February 2010.[3] Airing at the 5 pm KST time slot for most of its run, Running Man switched to the second part of Good Sunday (which happened May 22 and May 29, 2011 with Kim Yu-na’s Kiss and Cry but was quickly switched back due to low ratings) beginning May 6, 2012, airing after Kim Byung-man’s Law of the Jungle 2 at 6:10 pm and airing against KBS2 Happy Sunday’s 1 Night 2 Days Season 2 and MBC Sunday Night’s I Am a Singer 2.[4]

Some cast

________________________________________________________________________________________

 Big Bang  BoA  Bong Sun  Bora  Cha Tae Hyun  Changmin  choi min soo  Choi Seung Hyun  Choi Si Won  Choi Siwon  Dae Sung Daesung  Dasom  Dong Young Bae  Eunhyuk  G-Dragon  Gary  GD  GO  Go Ah Ra  Goo Hara  Ha Ji Won  Ha-ha  Han Ga In  Han Seung Yeon  Hara  Heechul  Hyorin  Hyoyeon  IU  jang hyuk Jessica  Ji Suk-jin  Ji Yong  Jung Jae Hyung  Jung Yong Hwa  Jung Yonghwa  Kang Daesung  Kang Gary  Kang Hee-gun  Kim Heechul  Kim Hyun Joong  Kim Jae Dong  Kim Jong-kook  Kim Shin Young  Kwon Ji Yong  Lee Da Hae  Lee Gwang Soo  Lee Hong Ki  Lee Hyori  Lee Joon  Lee Kwang-su  Lee Seung Hyun  Lee Soo Hyun  Lizzy  Max Changmin  Minho  Nichkhun  Oh Ji Ho  Park Bo Young  Park Gyuri  Park Ji Sung  Se7en  Seohyun  Seung Ri  Seungri  Shin Se Kyung  Siwon  Son Dam Bi Song Ji-hyo  Song Joong-ki  Soyu  Sulli  suzy  T.O.P.  Tae Yang Taeyang  Taeyeon  TOP  U-Know  Victoria  Yoo Jae Suk  Yoon Do Hyun  Yoona  Yu Jae-suk  Yunho  Yuri

________________________________________________________________________________________

_______________________________________________
Download Link
http://runningmangiveaway.blogspot.com/2012/11/download-link.html
———————————————————————–
Keep Link ALIVE by Sharing Carefully
———————————————————————–

General

Complete name : F:\MUXING FOLDER\THE RUNNING MAN\10 BIT Converted\EP 91 – 120\Running Man – Episodes – 102.mp4
Format : MPEG-4
Format profile : Base Media
Codec ID : isom
File size : 813 MiB
Duration : 1h 29mn
Overall bit rate mode : Variable
Overall bit rate : 1 265 Kbps
Encoded date : UTC 2012-08-03 19:17:20
Tagged date : UTC 2012-08-03 19:17:20

Video

ID : 1
Format : AVC
Format/Info : Advanced Video Codec
Format profile : High 10@L5.0
Format settings, CABAC : Yes
Format settings, ReFrames : 12 frames
Codec ID : avc1
Codec ID/Info : Advanced Video Coding
Duration : 1h 29mn
Bit rate : 1 197 Kbps
Maximum bit rate : 2 584 Kbps
Width : 1 280 pixels
Height : 720 pixels
Display aspect ratio : 16:9
Frame rate mode : Constant
Frame rate : 29.970 fps
Color space : YUV
Chroma subsampling : 4:2:0
Bit depth : 10 bits
Scan type : Progressive
Bits/(Pixel*Frame) : 0.043
Stream size : 769 MiB (95%)
Title : Running Man E102 120708 HDTV H264 720p-HANrel
Writing library : x264 core 125 r2200kMod 999b753
Encoding settings : cabac=1 / ref=12 / deblock=1:1:1 / analyse=0×3:0×133 / me=umh / subme=7 / psy=1 / fade_compensate=0.00 / psy_rd=1.00:0.00 / mixed_ref=1 / me_range=16 / chroma_me=1 / trellis=1 / 8x8dct=1 / cqm=0 / deadzone=21,11 / fast_pskip=1 / chroma_qp_offset=-2 / threads=6 / lookahead_threads=1 / sliced_threads=0 / nr=0 / decimate=1 / interlaced=0 / bluray_compat=0 / constrained_intra=0 / bframes=8 / b_pyramid=2 / b_adapt=1 / b_bias=0 / direct=1 / weightb=0 / open_gop=0 / weightp=2 / keyint=300 / keyint_min=30 / scenecut=40 / intra_refresh=0 / rc_lookahead=40 / rc=crf / mbtree=1 / crf=22.0000 / qcomp=0.60 / qpmin=0 / qpmax=81 / qpstep=4 / vbv_maxrate=1200 / vbv_bufsize=25000 / crf_max=0.0 / nal_hrd=none / ip_ratio=1.40 / aq=1:1.00
Encoded date : UTC 2012-08-03 19:17:20
Tagged date : UTC 2012-08-03 19:18:56

Audio

ID : 2
Format : AAC
Format/Info : Advanced Audio Codec
Format profile : HE-AAC / LC
Codec ID : 40
Duration : 1h 29mn
Bit rate mode : Variable
Bit rate : 64.2 Kbps
Maximum bit rate : 71.7 Kbps
Channel(s) : 2 channels
Channel positions : Front: L R
Sampling rate : 48.0 KHz / 24.0 KHz
Compression mode : Lossy
Stream size : 41.3 MiB (5%)
Title : Imported with GPAC 0.4.6-DEV (internal rev. 5)
Encoded date : UTC 2012-08-03 19:18:55
Tagged date : UTC 2012-08-03 19:18:56

English Sub, Korean, Download, Mediafire, Tagging, Variety Show, Funny, yoo jae sook, kim jong kook, haha, ha dong hon, gwangvatar, lee kwang soo, guest star, event , show, kbs, sbs, hd, definition, link, share, newest, song ji hyo, gary , ji suk jin, episodes, blogger, backlink, part, show,

Running Man (Korean: 런닝맨) is a South Korean variety show; a part of SBS’s Good Sunday lineup, along with Kim Byung-man’s Law of the Jungle 2. It was first aired on July 11, 2010. This show is classified as an “urban action variety”; a never-before-seen new genre of variety shows.[1] The MCs and guests complete missions in a landmark to win the race.[2] It has garnered attention as being the come-back program for Yu Jae-suk, the main MC of the program, after leaving Good Sunday’s Family Outing in February 2010.[3] Airing at the 5 pm KST time slot for most of its run, Running Man switched to the second part of Good Sunday (which happened May 22 and May 29, 2011 with Kim Yu-na’s Kiss and Cry but was quickly switched back due to low ratings) beginning May 6, 2012, airing after Kim Byung-man’s Law of the Jungle 2 at 6:10 pm and airing against KBS2 Happy Sunday’s 1 Night 2 Days Season 2 and MBC Sunday Night’s I Am a Singer 2.[4]

Some cast

________________________________________________________________________________________

 Big Bang  BoA  Bong Sun  Bora  Cha Tae Hyun  Changmin  choi min soo  Choi Seung Hyun  Choi Si Won  Choi Siwon  Dae Sung Daesung  Dasom  Dong Young Bae  Eunhyuk  G-Dragon  Gary  GD  GO  Go Ah Ra  Goo Hara  Ha Ji Won  Ha-ha  Han Ga In  Han Seung Yeon  Hara  Heechul  Hyorin  Hyoyeon  IU  jang hyuk Jessica  Ji Suk-jin  Ji Yong  Jung Jae Hyung  Jung Yong Hwa  Jung Yonghwa  Kang Daesung  Kang Gary  Kang Hee-gun  Kim Heechul  Kim Hyun Joong  Kim Jae Dong  Kim Jong-kook  Kim Shin Young  Kwon Ji Yong  Lee Da Hae  Lee Gwang Soo  Lee Hong Ki  Lee Hyori  Lee Joon  Lee Kwang-su  Lee Seung Hyun  Lee Soo Hyun  Lizzy  Max Changmin  Minho  Nichkhun  Oh Ji Ho  Park Bo Young  Park Gyuri  Park Ji Sung  Se7en  Seohyun  Seung Ri  Seungri  Shin Se Kyung  Siwon  Son Dam Bi Song Ji-hyo  Song Joong-ki  Soyu  Sulli  suzy  T.O.P.  Tae Yang Taeyang  Taeyeon  TOP  U-Know  Victoria  Yoo Jae Suk  Yoon Do Hyun  Yoona  Yu Jae-suk  Yunho  Yuri

________________________________________________________________________________________

_______________________________________________
Download Link
http://runningmangiveaway.blogspot.com/2012/11/download-link.html
———————————————————————–
Keep Link ALIVE by Sharing Carefully
———————————————————————–

General

Complete name : F:\MUXING FOLDER\THE RUNNING MAN\10 BIT Converted\EP 91 – 120\Running Man – Episodes – 101.mp4
Format : MPEG-4
Format profile : Base Media
Codec ID : isom
File size : 809 MiB
Duration : 1h 29mn
Overall bit rate mode : Variable
Overall bit rate : 1 265 Kbps
Encoded date : UTC 2012-08-03 08:18:04
Tagged date : UTC 2012-08-03 08:18:04

Video

ID : 1
Format : AVC
Format/Info : Advanced Video Codec
Format profile : High 10@L5.0
Format settings, CABAC : Yes
Format settings, ReFrames : 12 frames
Codec ID : avc1
Codec ID/Info : Advanced Video Coding
Duration : 1h 29mn
Bit rate : 1 197 Kbps
Maximum bit rate : 3 115 Kbps
Width : 1 280 pixels
Height : 720 pixels
Display aspect ratio : 16:9
Frame rate mode : Constant
Frame rate : 29.970 fps
Color space : YUV
Chroma subsampling : 4:2:0
Bit depth : 10 bits
Scan type : Progressive
Bits/(Pixel*Frame) : 0.043
Stream size : 765 MiB (95%)
Title : Running Man E101 120701 HDTV H264 720p-HANrel
Writing library : x264 core 125 r2200kMod 999b753
Encoding settings : cabac=1 / ref=12 / deblock=1:1:1 / analyse=0×3:0×133 / me=umh / subme=7 / psy=1 / fade_compensate=0.00 / psy_rd=1.00:0.00 / mixed_ref=1 / me_range=16 / chroma_me=1 / trellis=1 / 8x8dct=1 / cqm=0 / deadzone=21,11 / fast_pskip=1 / chroma_qp_offset=-2 / threads=6 / lookahead_threads=1 / sliced_threads=0 / nr=0 / decimate=1 / interlaced=0 / bluray_compat=0 / constrained_intra=0 / bframes=8 / b_pyramid=2 / b_adapt=1 / b_bias=0 / direct=1 / weightb=0 / open_gop=0 / weightp=2 / keyint=300 / keyint_min=30 / scenecut=40 / intra_refresh=0 / rc_lookahead=40 / rc=crf / mbtree=1 / crf=22.0000 / qcomp=0.60 / qpmin=0 / qpmax=81 / qpstep=4 / vbv_maxrate=1200 / vbv_bufsize=25000 / crf_max=0.0 / nal_hrd=none / ip_ratio=1.40 / aq=1:1.00
Encoded date : UTC 2012-08-03 08:18:04
Tagged date : UTC 2012-08-03 08:19:32

Audio

ID : 2
Format : AAC
Format/Info : Advanced Audio Codec
Format profile : HE-AAC / LC
Codec ID : 40
Duration : 1h 29mn
Bit rate mode : Variable
Bit rate : 64.2 Kbps
Maximum bit rate : 72.0 Kbps
Channel(s) : 2 channels
Channel positions : Front: L R
Sampling rate : 48.0 KHz / 24.0 KHz
Compression mode : Lossy
Stream size : 41.1 MiB (5%)
Title : Imported with GPAC 0.4.6-DEV (internal rev. 5)
Encoded date : UTC 2012-08-03 08:19:14
Tagged date : UTC 2012-08-03 08:19:32

English Sub, Korean, Download, Mediafire, Tagging, Variety Show, Funny, yoo jae sook, kim jong kook, haha, ha dong hon, gwangvatar, lee kwang soo, guest star, event , show, kbs, sbs, hd, definition, link, share, newest, song ji hyo, gary , ji suk jin, episodes, blogger, backlink, part, show,

Running Man (Korean: 런닝맨) is a South Korean variety show; a part of SBS’s Good Sunday lineup, along with Kim Byung-man’s Law of the Jungle 2. It was first aired on July 11, 2010. This show is classified as an “urban action variety”; a never-before-seen new genre of variety shows.[1] The MCs and guests complete missions in a landmark to win the race.[2] It has garnered attention as being the come-back program for Yu Jae-suk, the main MC of the program, after leaving Good Sunday’s Family Outing in February 2010.[3] Airing at the 5 pm KST time slot for most of its run, Running Man switched to the second part of Good Sunday (which happened May 22 and May 29, 2011 with Kim Yu-na’s Kiss and Cry but was quickly switched back due to low ratings) beginning May 6, 2012, airing after Kim Byung-man’s Law of the Jungle 2 at 6:10 pm and airing against KBS2 Happy Sunday’s 1 Night 2 Days Season 2 and MBC Sunday Night’s I Am a Singer 2.[4]

Some cast

________________________________________________________________________________________

 Big Bang  BoA  Bong Sun  Bora  Cha Tae Hyun  Changmin  choi min soo  Choi Seung Hyun  Choi Si Won  Choi Siwon  Dae Sung Daesung  Dasom  Dong Young Bae  Eunhyuk  G-Dragon  Gary  GD  GO  Go Ah Ra  Goo Hara  Ha Ji Won  Ha-ha  Han Ga In  Han Seung Yeon  Hara  Heechul  Hyorin  Hyoyeon  IU  jang hyuk Jessica  Ji Suk-jin  Ji Yong  Jung Jae Hyung  Jung Yong Hwa  Jung Yonghwa  Kang Daesung  Kang Gary  Kang Hee-gun  Kim Heechul  Kim Hyun Joong  Kim Jae Dong  Kim Jong-kook  Kim Shin Young  Kwon Ji Yong  Lee Da Hae  Lee Gwang Soo  Lee Hong Ki  Lee Hyori  Lee Joon  Lee Kwang-su  Lee Seung Hyun  Lee Soo Hyun  Lizzy  Max Changmin  Minho  Nichkhun  Oh Ji Ho  Park Bo Young  Park Gyuri  Park Ji Sung  Se7en  Seohyun  Seung Ri  Seungri  Shin Se Kyung  Siwon  Son Dam Bi Song Ji-hyo  Song Joong-ki  Soyu  Sulli  suzy  T.O.P.  Tae Yang Taeyang  Taeyeon  TOP  U-Know  Victoria  Yoo Jae Suk  Yoon Do Hyun  Yoona  Yu Jae-suk  Yunho  Yuri

________________________________________________________________________________________

_______________________________________________
Download Link
http://runningmangiveaway.blogspot.com/2012/11/download-link.html
———————————————————————–
Keep Link ALIVE by Sharing Carefully
———————————————————————–

General

Complete name : F:\MUXING FOLDER\THE RUNNING MAN\10 BIT Converted\EP 91 – 120\Running Man – Episodes – 100.mp4
Format : MPEG-4
Format profile : Base Media
Codec ID : isom
File size : 811 MiB
Duration : 1h 29mn
Overall bit rate mode : Variable
Overall bit rate : 1 265 Kbps
Encoded date : UTC 2012-08-03 02:46:24
Tagged date : UTC 2012-08-03 02:46:24

Video

ID : 1
Format : AVC
Format/Info : Advanced Video Codec
Format profile : High 10@L5.0
Format settings, CABAC : Yes
Format settings, ReFrames : 12 frames
Codec ID : avc1
Codec ID/Info : Advanced Video Coding
Duration : 1h 29mn
Bit rate : 1 197 Kbps
Maximum bit rate : 3 203 Kbps
Width : 1 280 pixels
Height : 720 pixels
Display aspect ratio : 16:9
Frame rate mode : Constant
Frame rate : 29.970 fps
Color space : YUV
Chroma subsampling : 4:2:0
Bit depth : 10 bits
Scan type : Progressive
Bits/(Pixel*Frame) : 0.043
Stream size : 768 MiB (95%)
Title : Running Man E100 120624 HDTV H264 720p-HANrel
Writing library : x264 core 125 r2200kMod 999b753
Encoding settings : cabac=1 / ref=12 / deblock=1:1:1 / analyse=0×3:0×133 / me=umh / subme=7 / psy=1 / fade_compensate=0.00 / psy_rd=1.00:0.00 / mixed_ref=1 / me_range=16 / chroma_me=1 / trellis=1 / 8x8dct=1 / cqm=0 / deadzone=21,11 / fast_pskip=1 / chroma_qp_offset=-2 / threads=6 / lookahead_threads=1 / sliced_threads=0 / nr=0 / decimate=1 / interlaced=0 / bluray_compat=0 / constrained_intra=0 / bframes=8 / b_pyramid=2 / b_adapt=1 / b_bias=0 / direct=1 / weightb=0 / open_gop=0 / weightp=2 / keyint=300 / keyint_min=30 / scenecut=40 / intra_refresh=0 / rc_lookahead=40 / rc=crf / mbtree=1 / crf=22.0000 / qcomp=0.60 / qpmin=0 / qpmax=81 / qpstep=4 / vbv_maxrate=1200 / vbv_bufsize=25000 / crf_max=0.0 / nal_hrd=none / ip_ratio=1.40 / aq=1:1.00
Encoded date : UTC 2012-08-03 02:46:24
Tagged date : UTC 2012-08-03 02:48:04

Audio

ID : 2
Format : AAC
Format/Info : Advanced Audio Codec
Format profile : HE-AAC / LC
Codec ID : 40
Duration : 1h 29mn
Bit rate mode : Variable
Bit rate : 64.2 Kbps
Maximum bit rate : 70.9 Kbps
Channel(s) : 2 channels
Channel positions : Front: L R
Sampling rate : 48.0 KHz / 24.0 KHz
Compression mode : Lossy
Stream size : 41.2 MiB (5%)
Title : Imported with GPAC 0.4.6-DEV (internal rev. 5)
Encoded date : UTC 2012-08-03 02:47:51
Tagged date : UTC 2012-08-03 02:48:04

Follow

Get every new post delivered to your Inbox.

%d bloggers like this: